Thank you for being a valued part of the CNET community. As of December 1, 2020, the forums are in read-only format. In early 2021, CNET Forums will no longer be available. We are grateful for the participation and advice you have provided to one another over the years.

Thanks,

CNET Support

General discussion

I can not playback HD films on my LE32-B651 lcd tv.

Nov 23, 2010 5:39PM PST

I can play lots of films from my usb drive on my LE32-B651 lcd tv. But hd films can not be played. Codec info from one of films, which i tried to play is so :

General
Complete name : Avatar.2009.BluRay.1080p.x264.DUAL.AMIABLE.mkv
Format : Matroska
File size : 11.4 GiB
Duration : 2h 41mn
Overall bit rate : 10.1 Mbps
Movie name : Avatar (2009) - httpc//www.dwshare.com
Encoded date : UTC 2010-04-25 02:07:21
Writing application : mkvmerge v2.5.1 ('He Wasn't There') built on Feb 22 2009 18:19:47
Writing library : libebml v0.7.7 + libmatroska v0.8.1

Video
ID : 1
Format : AVC
Format/Info : Advanced Video Codec
Format profile : High@L4.1
Format settings, CABAC : Yes
Format settings, ReFrames : 4 frames
Codec ID : V_MPEG4/ISO/AVC
Duration : 2h 41mn
Bit rate : 8 171 Kbps
Width : 1 920 pixels
Height : 1 080 pixels
Display aspect ratio : 16:9
Frame rate : 23.976 fps
Color space : YUV
Chroma subsampling : 4:2Shocked
Bit depth : 8 bits
Scan type : Progressive
Bits/(Pixel*Frame) : 0.164
Stream size : 9.00 GiB (79%)
Title : www.blurayindir.com
Writing library : x264 core 93 r1542 5b86182
Encoding settings : cabac=1 / ref=4 / deblock=1ShockedShocked / analyse=0x3:0x133 / me=umh / subme=7 / psy=1 / psy_rd=1.00Shocked.00 / mixed_ref=1 / me_range=16 / chroma_me=1 / trellis=1 / 8x8dct=1 / cqm=0 / deadzone=21,11 / fast_pskip=1 / chroma_qp_offset=-2 / threads=12 / sliced_threads=0 / nr=0 / decimate=0 / interlaced=0 / constrained_intra=0 / bframes=3 / b_pyramid=2 / b_adapt=1 / b_bias=0 / direct=3 / wpredb=1 / wpredp=2 / keyint=240 / keyint_min=24 / scenecut=40 / intra_refresh=0 / rc_lookahead=30 / rc=2pass / mbtree=1 / bitrate=8171 / ratetol=1.0 / qcomp=0.60 / qpmin=10 / qpmax=51 / qpstep=4 / cplxblur=20.0 / qblur=0.5 / ip_ratio=1.40 / aq=1:1.00
Language : English

Audio #1
ID : 2
Format : AC-3
Format/Info : Audio Coding 3
Mode extension : CM (complete main)
Codec ID : A_AC3
Duration : 2h 41mn
Bit rate mode : Constant
Bit rate : 448 Kbps
Channel(s) : 6 channels
Channel positions : Front: L C R, Side: L R, LFE
Sampling rate : 48.0 KHz
Bit depth : 16 bits
Stream size : 518 MiB (4%)
Title : www.blurayindir.com
Language : Turkish

Audio #2
ID : 3
Format : DTS
Format/Info : Digital Theater Systems
Codec ID : A_DTS
Duration : 2h 41mn
Bit rate mode : Constant
Bit rate : 1 510 Kbps
Channel(s) : 6 channels
Channel positions : Front: L C R, Side: L R, LFE
Sampling rate : 48.0 KHz
Bit depth : 24 bits
Video delay : 11ms
Stream size : 1.71 GiB (15%)
Title : www.blurayindir.com
Language : English


I am trying to convert this film into avi fromat, but again can not play it.

any idea?

thank you.

Discussion is locked

- Collapse -
I can not playback HD films on my LE32-B651 lcd tv.
Nov 23, 2010 6:52PM PST

yavuzkavus,

Movie name : Avatar (2009) - httpc//www.dwshare.com

Guys, do me a favor? At least erase the glaringly obvious evidence that you downloaded the files from a warez site before you complain that your TV doesn't play HD files. Please?

HD films can be played, with the one video codec, audio codec, and supported resolution as listed in the manual.

Re-encoding them to specs is going to be necessary.

--HDTech

- Collapse -
Sorry
Nov 23, 2010 11:20PM PST
Happy
thank you.

i took it from my friend's flash. I think he also had taken from another friend's Happy.

Sorry, i will erase file immediately.
i couldn't find a way to edit my previous post.

which manual do you talk about, the one you gave me on product?

thank you very much again.
- Collapse -
Locked!
Nov 24, 2010 1:08AM PST

Please see the forum policies.